#TITLE:Butterfly;
#SUBTITLE:Dead Master;
#ARTIST:Smile.dk;
#TITLETRANSLIT:;
#SUBTITLETRANSLIT:;
#ARTISTTRANSLIT:;
#CREDIT:;
#BANNER:bn.jpg;
#BACKGROUND:bg.jpg;
#LYRICSPATH:;
#CDTITLE:cd.png;
#MUSIC:butterfly.mp3;
#OFFSET:-0.348;
#SAMPLESTART:35.468;
#SAMPLELENGTH:12.000;
#SELECTABLE:YES;
#BPMS:0.000=170.842;
#STOPS:;
#BGCHANGES:;
// cache tags:
#FIRSTBEAT:1.000;
#LASTBEAT:243.750;
#SONGFILENAME:Songs/s/Butterfly (Smile.dk)/butterfly.sm;
#HASMUSIC:1;
#HASBANNER:1;
#MUSICLENGTH:88.506;
// end cache tags

//---------------dance-single - ----------------
#NOTES:
     dance-single:
     :
     Hard:
     1:
     0.868,0.723,0.282,0.000,1.000,513.000,25.000,0.000,0.000,0.000:
0000
0000
0000
0000
1000
0000
0010
0000
0100
0000
0000
0000
0000
0001
0000
0000
,
1000
0000
0000
0010
0000
0100
0001
0000
0000
1000
0000
0000
0000
0000
0010
0000
,
0100
0001
0000
0000
1000
0000
0010
0000
0100
0000
0000
0001
0000
1000
0000
0010
,
0000
0010
0100
0000
0000
0001
0000
1000
0000
0010
0000
0000
0000
0100
0001
0000
,
1000
0010
0000
0100
0000
0001
0000
1000
0000
0010
0000
0100
0000
0001
0000
1000
,
0000
0010
0000
0010
0100
0001
0000
0000
1000
0010
0000
0000
0010
0100
0000
0001
,
1000
0000
0000
0010
0000
0010
0100
0000
0001
0000
1000
0000
0010
0000
0100
0001
,
0000
0000
1000
0000
0010
0100
0001
0000
0000
0101
0001
0000
1000
0010
0000
0000
,
0010
0100
0000
0001
1000
0000
0000
0010
0100
0000
0001
0000
1000
0000
0010
0000
,
0100
0001
0000
0100
0010
0000
1000
0001
0000
0000
0100
0010
0000
0100
0001
0000
,
0001
0000
1000
0000
0010
0000
0100
0010
0000
0100
0000
0001
0000
1000
0001
0000
,
0010
0000
0100
0010
0000
1000
0000
0000
0101
0000
0001
0000
0100
0001
0000
0001
,
0000
1000
0010
0000
0010
0000
0010
0000
0100
0000
0100
0001
0000
0001
0000
1000
,
0000
1000
0010
0000
0010
0000
0110
0000
0100
0000
0001
0000
0001
1000
0000
0000
,
1010
0000
0010
0000
0100
0000
0001
0001
0100
0000
0010
0000
0010
0000
1000
0000
,
0100
0010
0000
0010
0100
0000
0000
0001
0001
0000
0000
0001
0000
0000
0010
0000
,
0010
0100
0010
0000
0100
0000
0010
1000
0000
0110
0000
0010
0000
0100
0010
0000
,
0100
0001
0000
0001
0000
1000
0000
0010
0000
0010
0100
0010
0000
0100
0001
0000
,
0000
0001
0000
1000
0000
0010
0010
0000
0100
0000
0010
0100
0000
0001
0000
1000
,
0010
0000
0100
0010
0000
0100
0000
0001
0000
1000
0000
0000
0000
0000
0010
0000
,
0000
0000
0000
0000
0000
0000
0000
0000
0000
0000
0000
0000
0000
0000
0010
0010
,
0000
0100
0000
0001
1000
0000
0010
0000
0110
0000
0100
0000
0001
0100
0000
0010
,
0000
1000
0010
0000
0100
0000
0001
1000
0000
0000
0010
0000
0010
0100
0000
0001
,
0000
1000
0000
0010
0000
0010
0100
0000
0001
0100
0000
0010
0000
1000
0000
0010
,
0100
0001
0000
0010
0100
0000
1010
0000
0000
0010
0000
0100
0001
0000
0100
0010
,
0000
1000
0010
0000
0010
0000
0100
0001
0000
0100
0000
0010
0000
0010
1000
0000
,
0000
0010
0100
0000
0001
0000
0100
0010
0000
0000
0000
1000
0010
0000
0100
0001
,
0000
0100
0000
0010
0000
1000
0000
0010
0000
0100
0000
0001
0000
0100
0010
0000
,
1000
0001
0101
0001
0001
0001
0100
0010
,
0110
0000
0000
0100
1000
0000
0100
0010
0000
0010
0000
0100
0010
0000
0010
0000
,
0000
0101
0000
0001
0100
0000
1000
0000
0010
0000
0010
0100
0000
0010
0000
0100
,
0001
0000
0100
0010
0000
0000
0010
1000
0010
0000
0000
0101
0000
0000
0101
0000
,
0100
0000
0010
0000
1000
0010
0000
0010
0000
0100
0001
0000
0100
0001
0000
0000
,
1010
0000
0010
0000
1000
0000
0110
0000
0100
0001
0000
0100
0000
0010
1000
0000
,
0001
0000
0100
0010
0000
0100
0001
0000
0000
1000
0000
0001
0000
0100
0010
0000
,
0100
0000
0010
0000
1000
0000
0001
0000
0100
0000
0010
0000
1000
0001
0000
0000
,
0100
0010
0000
0000
1000
0001
0000
0000
0100
0010
0000
1000
0000
0001
0000
0100
,
0010
0000
0000
1001
0000
0000
0001
0000
0001
0100
0010
0000
0010
0000
0000
1000
,
0000
1000
0010
0000
0010
0000
0100
0000
0100
0000
0001
0000
0000
0001
0000
1000
,
0000
1000
0010
0000
0010
0000
0010
0000
0100
0000
0100
0001
0001
0000
0001
0000
,
1000
0000
0010
0000
0010
0000
0100
0001
0000
0100
0000
0000
0010
0000
0010
0000
,
1000
0001
0000
0000
0001
0000
0100
0000
0010
0000
0000
1010
0000
1000
0010
0000
,
0010
0000
0010
0100
0000
0100
0001
0000
0001
0000
0001
0000
1000
0000
0010
0000
,
0010
0000
0100
0001
0000
0001
0000
0100
0000
0010
0000
0010
1000
0000
0010
0000
,
0010
0000
0100
0001
0000
0000
1000
0000
0010
0000
0010
0000
0100
0001
0000
0000
,
0100
0010
0000
0010
0100
0000
0010
0000
1000
0010
0000
0000
0100
0001
0000
0101
,
0000
0000
1000
0010
0000
0000
0100
0001
0000
0000
1000
0010
0000
0100
0000
0001
,
0000
1000
0000
0010
0000
0101
0000
0000
0100
0010
0000
0000
1000
0001
0000
0100
,
0010
0000
0100
0001
0000
0001
0000
1000
0010
0000
0000
0010
0100
0000
0001
0000
,
1000
0000
0010
0000
0010
0100
0000
0001
0000
0001
0000
0001
0000
0100
0010
0000
,
1000
0000
0010
0000
0010
0000
0100
0001
0000
0001
0000
0000
0110
0000
0000
0100
,
0010
0000
0000
0010
0000
0000
1010
0000
0010
0000
0101
0000
0000
0101
0000
0000
,
0000
1010
0000
0000
0001
0000
0000
0100
0010
0001
0000
0000
1000
0010
0000
0010
,
0100
0000
0010
0000
0100
0000
0001
0000
0010
0000
1000
0000
0000
0010
0000
0010
,
0000
0100
0010
0000
0100
0001
0000
0000
1000
0010
0000
0000
0110
0000
0000
0100
,
0001
0000
0000
1000
0000
0010
0000
0000
0100
0001
0000
0100
0010
0000
0100
0000
,
0001
0010
0000
0001
0000
0000
0010
0000
0100
0010
0000
1000
0000
0010
0100
0000
,
0010
0100
0001
0000
0000
1000
0010
0000
0100
0010
0000
0001
1000
0000
0000
0010
,
0100
0010
0000
1000
0000
0001
0000
0100
0010
0000
0100
0000
0010
0000
1000
0001
,
0000
0001
0000
0100
0000
0010
0000
1000
0010
0000
0100
0001
0000
0100
0000
0010
,
0000
1000
0001
0000
0000
0110
0000
0000
0010
1000
0000
0100
0000
0010
0000
0010
;
